#TITLE:Miku Miku Ni Shite Ageru;
#SUBTITLE:;
#ARTIST:Hatsune Miku;
#TITLETRANSLIT:;
#SUBTITLETRANSLIT:;
#ARTISTTRANSLIT:;
#CREDIT:;
#BANNER:Hatsune Miku - Miku Miku Ni Shite Ageru-banner.jpg;
#BACKGROUND:Hatsune Miku - Miku Miku Ni Shite Ageru-bg.jpg;
#LYRICSPATH:Hatsune Miku - Miku Miku Ni Shite Ageru.lrc;
#CDTITLE:CDTitle.png;
#MUSIC:Hatsune Miku - Miku Miku Ni Shite Ageru.ogg;
#OFFSET:-0.140;
#SAMPLESTART:37.978;
#SAMPLELENGTH:12.000;
#SELECTABLE:YES;
#BPMS:0.000=160.000;
#STOPS:;
#BGCHANGES:;
// cache tags:
#FIRSTBEAT:1.000;
#LASTBEAT:262.000;
#SONGFILENAME:songs/Vocaloid Party/Hatsune Miku - Miku Miku Ni Shite Ageru/Hatsune Miku - Miku Miku Ni Shite Ageru.sm;
#HASMUSIC:1;
#HASBANNER:1;
#MUSICLENGTH:99.604;
// end cache tags

//---------------dance-single - ----------------
#NOTES:
     dance-single:
     :
     Challenge:
     9:
     0.843,0.822,0.351,0.151,0.482,538.000,35.000,15.000,9.000,0.000:

0000
0000
0000
0000
1000
0000
0010
0000
0100
0000
0010
0100
0000
0100
0001
0000
,
1000
0000
0001
0000
0001
0000
0000
0000
1000
0000
0001
1000
0000
1000
0010
0000
,
0100
0000
0010
0000
1000
0001
1000
0000
0001
0000
0100
0010
0000
0010
1000
0000
,
0001
0000
0100
0000
0010
0100
0010
0000
1000
0000
0001
0100
0000
0100
0010
0000
,
1000
0100
1000
0000
0010
0000
0100
0000
0001
0000
0010
0000
0100
0000
1010
0000
,
0000
0000
0110
0000
0001
0100
0001
0000
1000
0000
0001
1000
0000
1000
0100
0000
,
0010
0001
0010
0000
0100
1000
0100
0000
1000
0000
0010
1000
0000
1000
0001
0000
,
0100
0010
0100
0000
0010
1000
0010
0000
0100
0000
0001
0010
0000
0010
0100
0000
,
1000
0001
1000
0000
0001
0100
0001
0000
1000
0010
1000
0000
0100
0000
0100
0000
,
0010
0000
0000
0000
0001
0000
0100
0000
0001
0000
1000
0010
1000
0000
0001
0000
,
0100
0000
0001
0100
0010
0000
0100
0000
0001
0000
1000
0000
1010
0000
0010
0100
,
0010
0100
0001
0000
0000
0000
0001
0000
1000
0000
0100
0010
0001
0000
0100
0000
,
0010
0000
1000
0001
1000
0000
0001
0000
0100
0000
0010
0000
1000
0000
0100
1000
,
0100
1000
0010
0000
0100
0000
0001
0000
1000
0000
0010
0100
0010
0000
1000
0000
,
0010
0000
0100
0001
0010
0000
0001
0000
0100
0000
0010
0000
0101
0000
0001
0010
,
0001
0010
0100
0000
1000
0000
0100
0000
1000
0000
0010
0000
0100
0000
0001
1000
,
0001
0000
0001
0010
0100
0000
1000
0001
1000
0000
1000
0100
0010
0000
0001
0000
,
1000
0010
1000
0000
0000
0001
0100
1000
,
0100
0010
0110
0010
1000
1010
0010
0100
,
0001
1000
0010
0000
0000
1000
0010
0001
,
0010
1000
1001
0001
0010
0011
0001
0100
,
0010
0000
1000
0001
0100
0000
0010
0000
0000
0000
0101
0000
0000
0000
1001
0000
,
0000
0000
0001
0100
0010
0000
0000
0000
1000
0000
1100
0000
0000
0000
0010
0100
,
0001
0000
1000
0000
1001
0000
0000
0000
0000
0000
0001
0000
0010
0100
0010
0000
,
0001
0000
0100
0000
0010
1000
0010
1000
0100
0000
0010
0001
0100
0000
0010
0000
,
1000
0001
0020
0000
0031
011M
0000
1000
,
0001
0000
0200
0000
0000
0000
0301
0000
1000
0000
0010
0000
1000
0000
0001
0100
,
0010
0100
0001
0000
2000
0000
0000
0000
3001
0000
M101
0000
0000
0000
0001
0000
,
1000
0010
0100
0010
0000
1010
0000
0010
,
0100
0001
0200
0000
0310
01M1
0000
0001
,
1000
0200
0000
0310
0001
0010
0100
0010
,
0001
1000
0100
0200
0000
0010
0000
0000
,
1300
0001
0100
0010
0000
1000
0000
0010
,
0100
0000
0010
0000
1000
0100
1000
0000
0001
0000
0010
0100
0010
0100
0010
0000
,
0001
0000
0100
0000
0001
0100
0001
0000
0100
0000
0001
1000
0001
1000
0001
0000
,
0100
0000
0100
0000
0001
0010
0001
0000
0100
0000
0010
1000
0010
1000
0010
0000
,
0100
0001
0010
0100
0001
0100
1000
0010
,
0100
0000
0001
0000
1000
0010
0100
0000
0010
0000
1000
0100
1000
0001
1000
0000
,
0100
0000
0010
0000
0100
1000
0010
0000
1000
0000
0001
0010
0001
0100
0001
0000
,
1000
0000
1000
0000
0001
0010
0100
0000
1000
0000
0100
1000
0100
0010
0100
0000
,
0010
0001
0100
0010
0000
0110
0000
0010
,
0100
0010
1010
0000
0101
001M
0000
0110
,
0100
0000
0001
0000
0000
0000
1000
0000
0010
0000
1000
0000
0001
0000
0010
0100
,
0010
0001
0010
0000
0100
0000
0000
0000
1100
0000
0M01
0000
0000
0000
0100
0000
,
1000
0100
0010
1000
0000
1010
0000
0001
,
0100
0010
0110
0000
1001
010M
0000
1100
,
0100
0010
0000
0001
0100
0001
0100
1000
,
0100
0001
1000
2000
0000
0010
0000
0000
,
3100
0010
0001
0100
0000
0010
0000
1000
,
0100
0010
0002
0000
0103
0M11
0000
0001
,
0010
0000
0200
0000
0000
0000
1300
0000
0010
0000
1000
0000
0100
0000
0010
0001
,
0010
0100
0010
0000
0002
0000
0000
0000
1003
0000
101M
0000
0000
0000
0010
0000
,
0100
0010
1000
0100
0000
0010
0000
0001
,
1000
0010
0200
0000
0310
01M1
0000
0001
,
1000
0020
0000
0130
0001
0100
1000
0100
,
0010
1000
0100
0200
0000
1000
0000
0000
,
0310
0100
0010
0001
0000
0100
0001
0010
,
0001
0000
0100
0000
0010
1000
0100
0000
0010
0100
0010
0100
0000
0010
0100
0000
,
1000
0000
0010
0000
0100
0001
0010
0000
0001
0100
0001
0100
0000
0001
0100
0000
,
1100
0000
1010
0000
0010
0100
0001
0000
1000
0010
1000
0010
0000
1000
0010
0000
,
0100
0001
0010
0100
0000
1000
1100
0110
,
0000
0000
0001
0000
0010
0100
1000
0000
0001
1000
0001
1000
0000
0001
0010
0000
,
0100
0000
0010
0000
0100
1000
0001
0000
0100
0001
0100
0001
0000
0100
0010
0000
,
0110
0000
0101
0000
1000
0010
0100
0000
0010
1000
0010
1000
0000
0010
0100
0000
,
0010
1000
0100
1000
0000
0101
0000
0010
,
2000
0200
0000
0000
3300
0000
0000
0000
;

//---------------dance-single - ----------------
#NOTES:
     dance-single:
     :
     Medium:
     5:
     0.435,0.457,0.060,0.100,0.000,286.000,6.000,10.000,0.000,0.000:
0000
0000
0000
0000
,
0000
0000
1001
0000
0100
0000
0001
1000
,
0001
1000
0001
0010
,
0001
0001
0001
0000
0100
0000
0010
0000
,
0100
0001
0100
0000
0010
0000
1000
0010
,
0000
0010
0100
0000
0001
0000
1000
0001
,
1000
0010
0100
0001
,
1000
1000
1000
0000
0010
0000
0100
0000
,
0001
1000
0001
0000
1000
0000
0010
0100
,
0010
0000
1000
0010
1000
0000
0100
0000
,
0100
0000
1000
0010
0100
0010
0000
1000
,
0100
0000
0010
0100
1000
0000
0001
0000
,
0001
0000
1000
0100
0010
0100
0000
1000
,
0001
0000
0100
0001
1000
0000
0010
0000
,
0100
0000
0001
1000
0100
0010
0000
0001
,
0100
0000
0001
0010
0001
0000
0001
0100
,
0001
0000
1000
0000
0001
0000
0100
0010
,
0100
0010
0100
0000
0001
0000
1000
0000
,
0000
0000
0001
0010
0000
0001
1000
0000
,
0100
0010
0001
0100
,
0000
0000
0010
0100
0000
0010
1000
0000
,
0001
0000
0100
0000
0000
0010
0000
1000
,
0000
0000
0100
0000
0000
1000
0000
0010
,
0000
2000
0000
0002
,
0000
3003
4040
0000
0000
0000
3030
0000
,
0000
0000
1000
0000
0000
0001
0000
1000
,
0100
0010
0000
0001
1000
0000
0010
0000
,
0000
0000
0100
0000
0000
0001
0000
0100
,
0010
0000
1000
0000
0000
0001
0000
1000
,
0100
0000
1000
0000
0000
0010
0000
1000
,
0100
0010
0000
0001
1000
0000
0001
0000
,
0000
0000
0200
0000
0000
0002
0000
0303
,
1000
0000
0001
0000
0000
0100
0000
0010
,
0100
0000
0010
0000
1000
0000
0001
0100
,
0010
0000
1000
0000
0010
0000
0100
0001
,
0100
0010
0100
0000
0010
0000
1000
0100
,
1000
0000
0010
0000
1000
0000
0010
0100
,
0010
0000
1000
0000
0001
0000
0100
0010
,
0100
0000
0001
0000
1000
0000
0010
0100
,
0010
0100
0001
0000
1000
0000
0001
0100
,
0001
0000
1000
0001
1000
0000
0010
0100
,
0010
0000
1000
0000
0000
0010
0000
0100
,
0010
0100
0000
0010
0100
0000
0001
0000
,
0000
0000
0010
0000
0000
0010
0000
0001
,
0100
0000
0010
0000
0000
0010
0000
0100
,
0001
0000
1000
0000
0000
0010
0000
1000
,
0001
0100
0000
0001
0100
0000
0010
0000
,
0000
0000
1010
0000
0000
0220
0000
0330
,
1000
0000
0010
0000
0000
0100
0000
0010
,
0100
0000
0001
0000
0000
1000
0000
0001
,
1000
0001
0000
1000
0010
0000
0100
0000
,
0000
0000
0001
0000
0000
1000
0000
0010
,
0100
0000
0001
0000
0000
1000
0000
0010
,
0100
0000
0001
0000
0000
0010
0000
0001
,
0100
0010
0000
1000
0010
0000
1000
0000
,
0000
0000
2200
0000
3300
0022
0000
0033
,
0100
0000
0100
0010
0000
1000
0100
1000
,
0001
0000
0100
0000
0001
0100
0000
0010
,
0100
0000
0010
0000
1000
0010
0000
0100
,
0010
0000
1000
0000
0010
0100
0000
0001
,
1000
0000
0010
0000
1000
0000
0001
0010
,
0000
0100
0010
0000
0001
0100
0000
0010
,
1000
0000
0100
0000
1000
0100
0000
0010
,
0100
0000
1000
0000
0001
0100
0000
0010
,
0100
0000
0001
0000
0000
1000
0000
0001
,
0100
0000
0000
0000
;

//---------------dance-single - ----------------
#NOTES:
     dance-single:
     :
     Hard:
     8:
     0.668,0.592,0.100,0.512,0.141,405.000,10.000,51.000,12.000,0.000:
0000
0000
0000
0000
1000
0000
0001
0000
0010
0000
0100
0000
0000
0100
0010
0000
,
0001
1000
0010
0000
1000
0000
0010
0100
,
0001
0010
0100
0101
,
0001
0001
1001
0000
0010
0000
0100
0001
,
0100
0010
1000
0200
0000
0320
0M00
0032
,
00M0
0003
1000
0000
0010
0000
1000
0001
,
0100
0001
0100
0101
,
0100
0100
0110
0000
0010
0000
0100
0001
,
1000
0010
0100
0020
0000
0230
00M0
0301
,
1M00
0000
0101
0100
0010
0200
0000
0302
,
0000
1003
0010
0100
0001
1000
0000
0010
,
0100
0010
0000
1000
0010
0200
0000
0302
,
0000
2003
0000
3010
0100
0020
0000
0200
,
0000
0000
0330
0001
1000
0010
0000
1000
,
0001
0100
0010
0100
0001
1000
0000
0010
,
0100
0001
0000
1000
0100
0010
0100
0010
,
0001
2000
0000
3100
0010
0100
1000
0001
,
0100
0010
2000
0000
0000
3100
0020
0000
,
0000
0000
0001
0031
00MM
0001
0001
0100
,
0010
1000
0200
0000
0000
0310
0002
0000
,
0000
0000
1000
1003
M00M
1000
1000
0001
,
0010
0000
0100
0010
0100
0000
1010
0000
0000
0000
0110
0000
0000
0000
0200
0000
,
0000
0301
0020
0000
0031
0020
0000
0230
,
0000
1300
0010
0000
0000
1000
0002
0000
,
0000
0000
0000
0000
1003
0001
1000
0001
1000
0000
0100
0000
0010
0000
0100
0000
,
1000
0010
0100
0000
0010
1000
0000
0100
,
0010
0002
0000
0103
0010
1000
0100
0110
,
0100
0000
0020
0000
1030
0002
0000
0103
,
0010
1000
0001
0100
0000
0020
0000
1030
,
0001
0100
0010
0000
1000
0001
0000
0100
,
0010
2000
0000
3001
0100
0010
1000
0100
,
0010
0001
2000
0000
0000
0001
0000
3000
,
1000
0001
0100
0020
0000
2030
0000
3001
,
0100
0000
0010
0000
1000
0000
0010
0000
0100
0000
0001
0100
0000
0001
0100
0000
,
0010
0000
0000
0000
0100
0000
0010
0000
0100
0000
0001
1000
0000
0001
1000
0000
,
0010
0000
0000
0000
0100
0000
0010
0000
1000
0000
0001
0100
0000
0001
0100
0000
,
0010
0000
1000
0100
1000
0010
0100
0010
,
0100
0000
0001
0000
1000
0000
0100
0000
0010
0000
0001
0100
0000
0001
0100
0000
,
0010
0000
0000
0000
1000
0000
0010
0000
0100
0000
0010
0100
0000
0010
0100
0000
,
0001
0000
0000
0000
1000
0000
0100
0000
0010
0000
0001
0100
0000
0001
0100
0000
,
0010
1000
0010
0200
0000
0302
0000
1003
,
0001
0000
0100
0000
0010
1000
0000
0010
,
0100
0020
0000
1030
0001
0100
0001
0101
,
0001
0000
2000
0000
3001
0200
0000
0310
,
1000
0001
0100
0010
0000
2000
0000
3001
,
0100
0010
1000
0000
0001
0100
0000
0010
,
1000
0002
0000
0103
0010
1000
0001
0100
,
0010
1000
0020
0000
0000
0100
0000
0030
,
0010
1000
0001
1000
0000
0020
0000
1030
,
0001
0100
0010
0000
0100
0010
0000
1000
,
0100
1000
0000
0001
1000
0100
0010
0010
,
0010
0000
2000
0000
3010
0200
0000
0301
,
1000
0010
0100
0020
0000
2030
0000
3001
,
0100
0010
1000
0000
0010
0100
0000
0001
,
1000
0010
0000
0100
0010
1000
0001
0100
,
0010
1000
0020
0000
0000
1000
0000
0030
,
1000
0100
0010
0100
0000
1000
0010
0100
,
0001
0000
0010
0000
0100
0000
1000
0000
0010
0000
0100
0010
0000
0010
0100
0000
,
0001
0000
0000
0000
1000
0000
0010
0000
0100
0000
0001
0010
0000
0010
0001
0000
,
1000
0000
0000
0000
0010
0000
0100
0000
0010
0000
1000
0001
0000
0001
1000
0000
,
0100
0010
0001
0200
0000
0302
0M00
0023
,
000M
0000
0000
0000
0031
0000
1000
0000
0100
0000
1000
0100
0000
0100
1000
0000
,
0010
0000
0000
0000
1000
0000
0001
0000
0100
0000
0010
1000
0000
1000
0010
0000
,
0100
0000
0000
0000
0010
0000
1000
0000
0001
0000
0100
0010
0000
0010
0100
0000
,
0001
1000
0100
0020
0000
0230
00M0
0310
,
0M22
0000
0033
0000
;

//---------------dance-single - ----------------
#NOTES:
     dance-single:
     :
     Easy:
     3:
     0.241,0.294,0.040,0.110,0.000,153.000,4.000,11.000,0.000,0.000:
0000
0000
0000
0000
,
0000
1000
0001
0100
,
0000
0020
0000
2030
,
0000
3002
0000
0000
,
2003
0000
3020
0000
0000
0230
0000
0000
,
0000
0310
1000
0010
,
0000
0100
0000
0020
,
0000
2030
0000
0000
,
3002
0000
0203
0000
0000
0320
0000
0000
,
0000
1030
0000
0010
,
0000
0100
0010
0100
,
0010
0100
0000
0010
,
0000
1000
0010
1000
,
0010
1000
0000
0001
,
0000
0100
0001
0100
,
0001
0100
0000
0010
,
0000
1000
0001
1000
,
0000
0010
0000
0100
,
0000
0110
0000
0110
,
0000
1000
0000
0001
,
0000
1001
0000
1001
,
0000
1000
0000
0010
,
0000
0100
0000
0001
,
0000
1000
0000
0010
,
0000
0100
0001
0100
,
0001
0100
0000
0010
,
0000
1000
0001
1000
,
0000
0010
0000
0100
,
0000
0001
0100
0001
,
0000
1000
0000
0010
,
0000
0100
0010
0100
,
0000
0001
0000
0000
,
0000
1000
0000
0000
,
0000
0010
1000
0001
,
0000
0100
0001
1000
,
0000
0010
1000
0100
,
0000
0010
0001
0100
,
0000
0010
0000
0010
,
0000
1000
0001
1000
,
0000
0001
0000
0001
,
0000
1000
0010
1000
,
0010
1000
0000
0001
,
0000
0100
0010
0100
,
0000
0001
0000
1000
,
0000
0001
0100
0001
,
0000
1000
0000
0010
,
0000
0100
0001
0100
,
0000
0010
0000
0000
,
0000
0100
0000
0000
,
0000
0001
0000
1000
,
0000
0001
0000
1000
,
0000
0010
0000
0000
,
0000
0100
0010
0100
,
0010
0100
0000
0001
,
0000
1000
0000
0010
,
0000
0100
0000
0000
,
0000
0001
1000
0001
,
1000
0010
0000
0100
,
0000
0010
1000
0010
,
0100
0001
0000
0000
,
0000
1000
0000
0001
,
0000
0100
0000
0000
,
0000
0010
1000
0001
,
0100
0010
0000
0000
,
0000
1000
0100
0010
,
0001
0000
0000
0000
;

//---------------dance-single - ----------------
#NOTES:
     dance-single:
     :
     Beginner:
     1:
     0.122,0.129,0.040,0.010,0.000,80.000,4.000,1.000,0.000,0.000:
0000
0000
0000
0000
,
0000
1000
0000
0000
,
0000
0001
0000
0000
,
0000
0100
0000
0000
,
0000
0010
0000
0000
,
0000
1000
0000
0000
,
0000
0001
0000
0000
,
0000
0100
0000
0000
,
0000
0010
0000
0000
,
0000
1000
0000
0001
,
0000
0100
0000
0000
,
0000
0010
0000
1000
,
0000
0001
0000
0000
,
0000
0100
0000
0001
,
0000
0100
0000
0000
,
0000
0010
0000
1000
,
0000
0010
0000
0000
,
0000
1001
0000
0000
,
0000
0100
0000
0000
,
0000
0001
0000
0000
,
0000
1000
0000
0000
,
0000
1010
0000
0000
,
0000
1000
0000
0000
,
0000
0001
0000
0100
,
0000
0002
0000
0000
,
0000
1003
0000
0010
,
0000
0010
0000
0000
,
0000
0100
0000
0001
,
0000
0001
0000
0000
,
0000
1000
0000
0001
,
0000
0001
0000
0000
,
0000
1001
0000
0000
,
0000
1000
0000
0000
,
0000
0001
0000
1000
,
0000
0001
0000
0000
,
0000
1000
0000
0001
,
0000
1000
0000
0000
,
0000
0010
0000
0100
,
0000
0010
0000
0000
,
0000
0100
0000
0010
,
0000
0100
0000
0000
,
0000
1001
0000
0000
,
0000
1000
0000
0000
,
0000
0010
0000
0000
,
0000
0100
0000
0000
,
0000
0001
0000
0000
,
0000
1000
0000
0000
,
0000
0010
0000
0000
,
0000
0100
0000
0000
,
0000
0001
0000
0000
,
0000
1000
0000
0000
,
0000
0010
0000
0000
,
0000
0100
0000
0000
,
0000
0001
0000
0000
,
0000
1000
0000
0000
,
0000
0010
0000
0000
,
0000
0100
0000
0000
,
0000
0001
0000
1000
,
0000
0010
0000
0000
,
0000
0100
0000
0001
,
0000
1000
0000
0000
,
0000
0010
0000
1000
,
0000
0010
0000
0000
,
0000
0100
0000
0001
,
0000
0100
0000
0000
;
